<?xml version="1.0" standalone="no"?>
<!DOCTYPE svg PUBLIC "-//W3C//DTD SVG 1.1//EN" "https://www.w3.org/Graphics/SVG/1.1/DTD/svg11.dtd" >
<svg xmlns="https://www.w3.org/2000/svg">
<metadata>Generated by IcoMoon</metadata>
<defs>
<font id="vc_grid_v1" horiz-adv-x="512">
<font-face units-per-em="512" ascent="480" descent="-32" />
<missing-glyph horiz-adv-x="512" />
<glyph unicode="&#x20;" d="" horiz-adv-x="256" />
<glyph unicode="&#xe600;" d="M369.116-30.609l35.995 35.995-218.613 218.613 218.616 218.613-35.998 35.998-254.611-254.611z" />
<glyph unicode="&#xe601;" d="M405.114 224.001l-254.611 254.607-35.995-35.995 218.613-218.613-218.616-218.613 35.998-35.998z" />
<glyph unicode="&#xe602;" d="M200.808 223.998l119.119 119.117-24.645 24.645-143.76-143.762 143.76-143.76 24.643 24.643zM257.171-30.203c140.392 0 254.201 113.809 254.201 254.201s-113.809 254.203-254.201 254.203c-140.387 0-254.199-113.811-254.199-254.203s113.811-254.201 254.199-254.201zM257.173 448.695c124.094 0 224.695-100.599 224.695-224.697s-100.601-224.697-224.695-224.697c-124.094 0-224.7 100.599-224.7 224.697s100.605 224.697 224.7 224.697z" />
<glyph unicode="&#xe603;" d="M194.419 343.117l119.117-119.117-119.119-119.117 24.645-24.645 143.76 143.762-143.76 143.76zM257.173 478.201c-140.392 0-254.201-113.809-254.201-254.201s113.809-254.203 254.201-254.203c140.387 0 254.198 113.811 254.198 254.203s-113.811 254.201-254.199 254.201zM257.171-0.697c-124.094 0-224.695 100.599-224.695 224.697s100.601 224.697 224.695 224.697c124.094 0 224.7-100.599 224.7-224.697s-100.605-224.697-224.7-224.697z" />
<glyph unicode="&#xe604;" d="M255.655-29.763c139.718 0 252.98 113.262 252.98 252.981s-113.262 252.983-252.981 252.983c-139.714 0-252.978-113.265-252.978-252.983s113.265-252.981 252.978-252.981zM293.583 366.289l24.527-24.527-118.548-118.545 118.543-118.545-24.524-24.524-143.070 143.067 143.072 143.074z" />
<glyph unicode="&#xe605;" d="M255.657 476.2c-139.718 0-252.981-113.262-252.981-252.981s113.263-252.983 252.981-252.983c139.714 0 252.978 113.265 252.978 252.983s-113.265 252.981-252.978 252.981zM217.73 80.147l-24.527 24.527 118.548 118.545-118.543 118.545 24.524 24.524 143.070-143.067-143.072-143.074z" />
<glyph unicode="&#xe606;" d="M394.971-19.491c13.942 13.938 13.942 36.541 0 50.479l-193.012 193.012 193.012 193.015c13.938 13.938 13.938 36.541 0 50.476-13.942 13.942-36.541 13.942-50.479 0.003l-218.253-218.252c-10.054-10.051-12.816-24.597-8.37-37.159 1.721-4.858 4.482-9.433 8.37-13.321l218.253-218.256c13.938-13.938 36.541-13.935 50.479 0.003z" />
<glyph unicode="&#xe607;" d="M126.27 467.491c-13.942-13.938-13.942-36.541 0-50.479l193.012-193.012-193.012-193.015c-13.939-13.938-13.939-36.541 0-50.476 13.942-13.942 36.541-13.942 50.479-0.003l218.253 218.252c10.054 10.051 12.815 24.597 8.37 37.159-1.721 4.858-4.482 9.433-8.37 13.321l-218.253 218.256c-13.939 13.938-36.541 13.935-50.479-0.003z" />
<glyph unicode="&#xe608;" d="M305.969 97.394c7.204 7.202 7.204 18.883 0 26.086l-99.737 99.737 99.737 99.739c7.202 7.202 7.202 18.881 0 26.083-7.204 7.204-18.883 7.204-26.084 0.002l-112.783-112.781c-5.195-5.195-6.619-12.711-4.326-19.204 0.888-2.511 2.317-4.874 4.326-6.882l112.783-112.783c7.202-7.2 18.881-7.2 26.084 0.002zM257.887-29.763c139.718 0 252.98 113.264 252.98 252.983 0 139.716-113.262 252.982-252.98 252.982-139.714 0-252.978-113.266-252.978-252.982 0-139.72 113.264-252.982 252.978-252.982zM257.889 446.835c123.499 0 223.616-100.115 223.616-223.618s-100.118-223.62-223.616-223.62c-123.499 0-223.62 100.115-223.62 223.62 0 123.502 100.122 223.618 223.62 223.618z" />
<glyph unicode="&#xe609;" d="M209.808 349.043c-7.204-7.202-7.204-18.883 0-26.086l99.737-99.737-99.737-99.739c-7.202-7.202-7.202-18.881 0-26.084 7.204-7.204 18.883-7.204 26.083-0.002l112.783 112.781c5.195 5.195 6.62 12.711 4.325 19.203-0.888 2.511-2.317 4.874-4.325 6.882l-112.783 112.783c-7.202 7.2-18.881 7.2-26.084-0.002zM257.889 476.202c-139.718 0-252.98-113.264-252.98-252.983 0-139.715 113.263-252.983 252.98-252.983 139.714 0 252.978 113.267 252.978 252.982 0 139.72-113.264 252.982-252.978 252.982zM257.887-0.397c-123.499 0-223.616 100.115-223.616 223.618s100.118 223.62 223.616 223.62c123.498 0 223.62-100.115 223.62-223.62 0-123.502-100.122-223.618-223.62-223.618z" />
<glyph unicode="&#xe60a;" d="M257.561-28.917c139.719 0 252.982 113.266 252.982 252.984 0 139.716-113.263 252.984-252.982 252.984-139.714 0-252.98-113.267-252.98-252.984 0-139.721 113.266-252.984 252.98-252.984zM165.339 237.111l112.784 112.781c7.202 7.202 18.881 7.202 26.084-0.002 7.202-7.202 7.202-18.881 0-26.084l-99.738-99.74 99.738-99.738c7.204-7.204 7.204-18.884 0-26.086-7.202-7.202-18.881-7.204-26.084 0l-112.784 112.784c-2.008 2.008-3.438 4.371-4.326 6.882-2.296 6.491-0.869 14.007 4.326 19.202z" />
<glyph unicode="&#xe60b;" d="M257.563 477.051c-139.719 0-252.982-113.265-252.982-252.984 0-139.716 113.263-252.984 252.982-252.984 139.714 0 252.98 113.267 252.98 252.984 0 139.721-113.265 252.984-252.98 252.984zM349.784 211.023l-112.784-112.781c-7.202-7.202-18.881-7.202-26.084 0.002-7.202 7.202-7.202 18.881 0 26.084l99.738 99.74-99.738 99.738c-7.204 7.204-7.204 18.884 0 26.086 7.202 7.202 18.881 7.204 26.084 0l112.784-112.784c2.008-2.008 3.438-4.371 4.326-6.882 2.296-6.491 0.868-14.007-4.326-19.201z" />
<glyph unicode="&#xe60c;" d="M280.565-19.692c13.858 13.855 13.858 36.322 0 50.177l-191.856 191.856 191.856 191.863c13.851 13.855 13.851 36.322 0 50.173-13.858 13.858-36.322 13.858-50.177 0.004l-216.946-216.949c-9.991-9.988-12.736-24.446-8.316-36.936 1.707-4.827 4.449-9.373 8.316-13.238l216.946-216.949c13.855-13.861 36.322-13.855 50.177 0zM84.563 186.859l391.050 0.003c19.591 0 35.478 15.887 35.478 35.481 0 19.597-15.884 35.481-35.478 35.481h-391.050v-70.966z" />
<glyph unicode="&#xe60d;" d="M233.609 464.377c-13.858-13.855-13.858-36.322 0-50.177l191.856-191.856-191.856-191.863c-13.851-13.855-13.851-36.322 0-50.173 13.858-13.859 36.322-13.859 50.177-0.003l216.946 216.949c9.99 9.988 12.736 24.447 8.317 36.936-1.707 4.827-4.449 9.374-8.317 13.238l-216.946 216.949c-13.855 13.861-36.322 13.855-50.177 0zM429.611 257.826l-391.050-0.004c-19.59 0-35.478-15.887-35.478-35.481 0-19.598 15.884-35.481 35.478-35.481h391.050v70.966z" />
<glyph unicode="&#xe60e;" d="M298.74 439.75l-35.538 35.538-251.358-251.358 251.358-251.351 35.534 35.534-215.817 215.817zM502.784 198.803h-423.812v50.26h423.812v-50.26z" />
<glyph unicode="&#xe60f;" d="M431.709 223.936l-215.82-215.82 35.537-35.538 251.358 251.358-251.358 251.351-35.535-35.534zM11.844 249.063h423.812v-50.26h-423.812v50.26z" />
<glyph unicode="&#xe610;" d="M509.803-27.707v503.416h-503.416v-503.416h503.416zM303.289 359.186l19.113-19.114-116.073-116.070 116.070-116.073-19.111-19.111-135.186 135.185 135.186 135.185z" />
<glyph unicode="&#xe611;" d="M6.388 475.708v-503.416h503.416v503.416h-503.416zM212.9 88.815l-19.113 19.113 116.073 116.070-116.070 116.073 19.112 19.112 135.186-135.185-135.186-135.185z" />
<glyph unicode="&#xe612;" d="M509.708-27.61v503.416h-503.416v-503.416h503.416zM177.811 237.149l112.858 112.86c7.208 7.208 18.893 7.208 26.103-0.002 7.208-7.208 7.208-18.896 0-26.101l-99.808-99.81 99.805-99.805c7.208-7.208 7.21-18.896 0-26.103-7.208-7.208-18.895-7.21-26.103-0.002l-112.858 112.861c-2.012 2.010-3.439 4.377-4.327 6.887-2.294 6.498-0.867 14.018 4.329 19.216z" />
<glyph unicode="&#xe613;" d="M6.292 475.806v-503.416h503.416v503.416h-503.416zM338.189 211.048l-112.858-112.861c-7.208-7.208-18.893-7.208-26.103 0.002-7.208 7.208-7.208 18.896 0 26.101l99.808 99.81-99.805 99.805c-7.208 7.208-7.21 18.896 0 26.103 7.208 7.208 18.895 7.21 26.103 0.002l112.858-112.861c2.012-2.010 3.439-4.376 4.327-6.887 2.294-6.498 0.867-14.018-4.329-19.216z" />
<glyph unicode="&#xe614;" d="M52.182-28.928h408.32c26.933 0 48.767 21.834 48.767 48.767v408.318c0 26.935-21.834 48.769-48.767 48.769h-408.32c-26.933 0-48.767-21.832-48.767-48.769v-408.318c0.002-26.933 21.834-48.767 48.767-48.767zM301.757 359.839l19.206-19.206-116.635-116.633 116.632-116.635-19.204-19.204-135.841 135.839 135.841 135.839z" />
<glyph unicode="&#xe615;" d="M460.503 476.928h-408.32c-26.933 0-48.767-21.834-48.767-48.767v-408.318c0-26.935 21.834-48.769 48.767-48.769h408.32c26.933 0 48.767 21.832 48.767 48.769v408.318c-0.002 26.933-21.834 48.767-48.767 48.767zM210.929 88.161l-19.206 19.206 116.635 116.632-116.632 116.635 19.204 19.204 135.841-135.839-135.841-135.839z" />
<glyph unicode="&#xe616;" d="M54.871-27.709h406.351c26.803 0 48.532 21.729 48.532 48.532v406.351c0 26.805-21.729 48.534-48.532 48.534h-406.353c-26.803 0-48.532-21.726-48.532-48.534v-406.351c0.002-26.803 21.729-48.532 48.534-48.532zM177.856 237.049l112.858 112.86c7.208 7.208 18.893 7.208 26.103-0.002 7.208-7.208 7.208-18.896 0-26.101l-99.808-99.81 99.805-99.805c7.208-7.208 7.21-18.895 0-26.103-7.208-7.208-18.896-7.21-26.103-0.002l-112.858 112.861c-2.012 2.010-3.439 4.377-4.327 6.887-2.294 6.498-0.867 14.018 4.329 19.216z" />
<glyph unicode="&#xe617;" d="M461.219 475.707h-406.351c-26.803 0-48.532-21.729-48.532-48.532v-406.351c0-26.805 21.729-48.534 48.532-48.534h406.353c26.803 0 48.532 21.726 48.532 48.534v406.351c-0.002 26.803-21.729 48.532-48.534 48.532zM338.234 210.949l-112.858-112.861c-7.208-7.208-18.893-7.208-26.103 0.002-7.208 7.208-7.208 18.895 0 26.101l99.808 99.81-99.805 99.805c-7.208 7.208-7.21 18.895 0 26.103 7.208 7.208 18.895 7.21 26.103 0.002l112.858-112.861c2.012-2.010 3.439-4.376 4.327-6.887 2.294-6.498 0.867-14.018-4.329-19.216z" />
<glyph unicode="&#xe618;" d="M262.232 348.921c-8.528 8.527-22.35 8.527-30.875 0.002l-133.483-133.487c-6.146-6.148-7.834-15.043-5.121-22.728 1.051-2.97 2.738-5.77 5.117-8.146l133.486-133.487c8.525-8.525 22.349-8.522 30.874 0.003 8.527 8.525 8.525 22.349 0 30.874l-118.048 118.045 118.050 118.051c8.525 8.524 8.525 22.348 0 30.873zM412.232 348.921c-8.528 8.527-22.35 8.527-30.875 0.002l-133.484-133.487c-6.146-6.148-7.834-15.043-5.121-22.728 1.051-2.97 2.738-5.77 5.117-8.146l133.486-133.487c8.525-8.525 22.349-8.522 30.874 0.003 8.527 8.525 8.525 22.349 0 30.874l-118.047 118.045 118.051 118.051c8.524 8.524 8.524 22.348-0.001 30.873z" />
<glyph unicode="&#xe619;" d="M247.892 59.080c8.528-8.527 22.35-8.527 30.875-0.002l133.483 133.487c6.146 6.148 7.834 15.043 5.121 22.728-1.051 2.97-2.738 5.77-5.117 8.146l-133.484 133.487c-8.525 8.525-22.349 8.522-30.875-0.003s-8.525-22.349 0-30.874l118.047-118.045-118.050-118.051c-8.524-8.523-8.524-22.347 0-30.873zM97.892 59.080c8.528-8.527 22.35-8.527 30.875-0.002l133.485 133.487c6.146 6.148 7.834 15.043 5.121 22.728-1.051 2.97-2.738 5.77-5.117 8.146l-133.487 133.487c-8.525 8.525-22.349 8.522-30.874-0.003-8.527-8.525-8.525-22.349 0-30.874l118.048-118.045-118.051-118.051c-8.524-8.523-8.524-22.347 0-30.873z" />
<glyph unicode="&#xe61a;" d="M177.894 59.078c8.528-8.527 22.349-8.527 30.875-0.002l133.484 133.487c6.146 6.148 7.834 15.043 5.121 22.728-1.051 2.969-2.738 5.769-5.117 8.145l-133.486 133.488c-8.525 8.525-22.349 8.523-30.874-0.002-8.528-8.525-8.525-22.349 0-30.874l118.047-118.045-118.050-118.051c-8.525-8.524-8.525-22.348 0-30.874z" />
<glyph unicode="&#xe61b;" d="M342.232 356.921c-8.528 8.527-22.35 8.527-30.875 0.002l-133.483-133.487c-6.146-6.148-7.834-15.043-5.121-22.728 1.051-2.97 2.738-5.77 5.117-8.146l133.486-133.487c8.525-8.525 22.349-8.522 30.874 0.003 8.527 8.525 8.525 22.349 0 30.874l-118.048 118.045 118.050 118.051c8.525 8.524 8.525 22.348 0 30.873z" />
<glyph unicode="&#xe61c;" d="M467.040 184.032c22.064 0 39.936 17.872 39.936 39.968 0 22.080-17.872 39.968-39.968 39.968h-422.064c-22.064 0-39.952-17.888-39.952-39.968 0-22.096 17.888-39.968 39.968-39.968h422.080z" />
<glyph unicode="&#xe61d;" d="M467.040 184.032c22.064 0 39.936 17.872 39.936 39.968 0 22.080-17.872 39.968-39.968 39.968h-422.064c-22.064 0-39.952-17.888-39.952-39.968 0-22.096 17.888-39.968 39.968-39.968h422.080zM216.016 12.944c0-22.064 17.872-39.936 39.968-39.936 22.080 0 39.968 17.872 39.968 39.968v422.064c0 22.064-17.888 39.952-39.968 39.952-22.096 0-39.968-17.888-39.968-39.968v-422.080z" />
<glyph unicode="&#xe61e;" d="M13.376 363.2c-13.888-13.904-13.888-36.4 0-50.32l217.504-217.44c10-10.016 24.464-12.768 37.024-8.336 4.832 1.696 9.392 4.448 13.28 8.336l217.44 217.44c13.888 13.904 13.888 36.4 0 50.336-13.872 13.84-36.4 13.84-50.32 0l-192.304-192.336-192.32 192.32c-13.904 13.872-36.416 13.872-50.304 0z" />
<glyph unicode="&#xe61f;" d="M498.624 95.472c13.888 13.904 13.888 36.4 0 50.32l-217.504 217.44c-10 10.016-24.464 12.768-37.024 8.336-4.832-1.696-9.392-4.448-13.28-8.336l-217.44-217.44c-13.888-13.904-13.888-36.4 0-50.336 13.872-13.84 36.4-13.84 50.304 0l192.32 192.32 192.32-192.32c13.904-13.856 36.416-13.856 50.304 0.016z" />
<glyph unicode="&#xf0c9;" d="M0 54.857v36.572q0 7.428 5.428 12.857t12.857 5.428h402.286q7.428 0 12.857-5.428t5.428-12.857v-36.572q0-7.428-5.428-12.857t-12.857-5.428h-402.286q-7.428 0-12.857 5.428t-5.428 12.857zM0 201.143v36.572q0 7.428 5.428 12.857t12.857 5.429h402.286q7.428 0 12.857-5.428t5.428-12.857v-36.571q0-7.428-5.428-12.857t-12.857-5.428h-402.286q-7.428 0-12.857 5.428t-5.428 12.857zM0 347.429v36.572q0 7.428 5.428 12.857t12.857 5.428h402.286q7.428 0 12.857-5.428t5.428-12.857v-36.572q0-7.428-5.428-12.857t-12.857-5.428h-402.286q-7.428 0-12.857 5.428t-5.428 12.857z" />
</font>
</defs>
</svg>
